[Login] or [Signup]
Login
Username:
Password:
[Signup]
[Recover Account]


Poll


You must be logged in to view polls



Torrent Details For "[18+] Killing Joan 2018 English WEB-DL x264 AAC 720p 800MB [HDFilmBoss.Com]"

[18+] Killing Joan 2018 English WEB-DL x264 AAC 720p 800MB [HDFilmBoss.Com]

Download this torrent | Magnet Download
Health:
Seeds: 0
Leechers: 4
Completed:
Last Checked: 03-04-2018 20:19:18
External Torrent
Update Stats
Download Magnet


Poster


iMDB
Imdb Picture Title: Killing Joan
Year: 2018
Runtime: 98 minutes
Language: English
Country: USA
All Genres: Action, Crime, Drama, Horror, Thriller
Plot Outline: An enforcer for the mob enacts her revenge on those who wronged her.
Director: Todd Bartoo
Writing By: Todd Bartoo,
Produced By: Erik Aude,Todd Bartoo,David Bertolino,Joseph Cervelin,
Music: Michael 'Pugita' Kobayashi
Cast:
Jamie Bernadette as Joan Butler
Teo Celigo as Anthony
Erik Aude as Miles
David Carey Foster as Frank
Daniel Gardner as Neal
Dion Basco as Henry
Pavle Kujundzic as George
Casper Andreas as Anson
Katarina Leigh Waters as Donna
Erin O'Brien as Cheryl


Watch-Free-HD     Download

Details
Name:[18+] Killing Joan 2018 English WEB-DL x264 AAC 720p 800MB [HDFilmBoss.Com]
Description:
General
Complete name                            : HDFilmBoss.Com-Killing Joan (2018) English WEB-DL x264 AAC 720p 800MB-HDFilmBoss.Com.mkv
Format                                   : Matroska
Format version                           : Version 4 / Version 2
File size                                : 851 MiB
Duration                                 : 1 h 41 min
Overall bit rate mode                    : Variable
Overall bit rate                         : 1 174 kb/s
Movie name                               :
[18+] Killing Joan 2018 English HDFilmBoss.Com
Video
ID                                       : 1
Format                                   : AVC
Format/Info                              : Advanced Video Codec
Format profile                           : [email protected]
Format settings                          : CABAC / 4 Ref Frames
Format settings, CABAC                   : Yes
Format settings, RefFrames               : 4 frames
Codec ID                                 : V_MPEG4/ISO/AVC
Duration                                 : 1 h 41 min
Bit rate                                 : 1 039 kb/s
Width                                    : 1 280 pixels
Height                                   : 720 pixels
Display aspect ratio                     : 16:9
Frame rate mode                          : Constant
Frame rate                               : 23.976 (24000/1001) FPS
Color space                              : YUV
Chroma subsampling                       : 4:2:0
Bit depth                                : 8 bits
Scan type                                : Progressive
Bits/(Pixel*Frame)                       : 0.047
Stream size                              : 753 MiB (88%)
Title                                    : FardaDL.org | فردا دانلود
Writing library                          : x264

Audio
ID                                       : 2
Format                                   : Vorbis
Format settings, Floor                   : 1
Codec ID                                 : A_VORBIS
Duration                                 : 1 h 41 min
Bit rate mode                            : Variable
Bit rate                                 : 112 kb/s
Channel(s)                               : 2 channels
Sampling rate                            : 48.0 kHz
Compression mode                         : Lossy
Delay relative to video                  : 28 ms
Stream size                              : 81.2 MiB (10%)
Title                                    : FardaDL.org | فردا دانلود
Writing application                      : Lavc56.26.100
Writing library                          : libVorbis (Omnipresent) (20120203 (Omnipresent))
Language                                 : English




Other Direct Link Download From http://hdfilmboss.com/
Category:Movies > HDRips
Lang:English  English
Total Size:851.13 MB
Info Hash:3cce5830537bbd73368f6063ec31c252dbca3028
Added By:HDFilmBoss
Date Added:03-04-2018 16:39:47
Views:611
Hits:68

Download Torrent

Ratings:Not Yet Rated (Log in to rate it)


Tracker:
udp://tracker.coppersurfer.tk:6969/announce


File List: 


Comments

No comments still posted

Powered by 10 Hamsters v2-svn -|- Page Generated In 0.234206 secs.
-|- RSS FEED
Theme By: Nikkbu