[Login] or [Signup]
Login
Username:
Password:
[Signup]
[Recover Account]


Poll


You must be logged in to view polls



Torrent Details For "Outlaw King 2018 720p NF WEB-DL x264 ESub [MW]"

Outlaw King 2018 720p NF WEB-DL x264 ESub [MW]

Download this torrent | Magnet Download
Health:
Seeds: 220
Leechers: 376
Completed: 264 
Last Checked: 09-11-2018 15:23:18
External Torrent
Update Stats
Download Magnet


Poster
No poster


Watch-Free-HD     Download

Details
Name:Outlaw King 2018 720p NF WEB-DL x264 ESub [MW]
Description:

 


General
Format                                   : Matroska
Format version                           : Version 4 / Version 2
File size                                : 928 MiB
Duration                                 : 2 h 1 min
Overall bit rate                         : 1 067 kb/s

Video
ID                                       : 1
Format                                   : AVC
Format/Info                              : Advanced Video Codec
Format profile                           : [email protected]
Format settings                          : CABAC / 4 Ref Frames
Format settings, CABAC                   : Yes
Format settings, RefFrames               : 4 frames
Codec ID                                 : V_MPEG4/ISO/AVC
Duration                                 : 2 h 1 min
Bit rate                                 : 952 kb/s
Nominal bit rate                         : 1 000 kb/s
Width                                    : 1 280 pixels
Height                                   : 536 pixels
Display aspect ratio                     : 2.40:1
Frame rate mode                          : Constant
Frame rate                               : 24.000 FPS
Color space                              : YUV
Chroma subsampling                       : 4:2:0
Bit depth                                : 8 bits
Scan type                                : Progressive
Bits/(Pixel*Frame)                       : 0.058
Stream size                              : 829 MiB (89%)
Writing library                          : x264 core 155 r2901 7d0ff22
Default                                  : Yes
Forced                                   : No

Audio
ID                                       : 2
Format                                   : AAC
Format/Info                              : Advanced Audio Codec
Format profile                           : LC
Codec ID                                 : A_AAC-2
Duration                                 : 2 h 1 min
Bit rate                                 : 112 kb/s
Channel(s)                               : 2 channels
Channel positions                        : Front: L R
Sampling rate                            : 48.0 kHz
Frame rate                               : 46.875 FPS (1024 SPF)
Compression mode                         : Lossy
Stream size                              : 97.4 MiB (10%)
Language                                 : English
Default                                  : Yes
Forced                                   : No

Text
ID                                       : 3
Format                                   : UTF-8
Codec ID                                 : S_TEXT/UTF8
Codec ID/Info                            : UTF-8 Plain Text
Duration                                 : 1 h 59 min
Bit rate                                 : 48 b/s
Count of elements                        : 1387
Stream size                              : 42.9 KiB (0%)
Language                                 : English
Default                                  : Yes
Forced                                   : No


 http://pichub.site/image/Vp8V9
 http://pichub.site/image/VpgRs
 http://pichub.site/image/VpB9R
 http://pichub.site/image/VpmKB
 http://pichub.site/image/VpuXY
 http://pichub.site/image/VpNJ6

Category:Movies > HDRips
Lang:English  English
Total Size:927.95 MB
Info Hash:9866b14e2f44857bf52061e867b8d34552c8c5d0
Added By:Freaky
Date Added:09-11-2018 15:22:47
Views:104
Hits:12

Download Torrent

Ratings:Not Yet Rated (Log in to rate it)


Tracker:
udp://tracker.coppersurfer.tk:6969/announce


File List: 


Comments

No comments still posted

Powered by 10 Hamsters v2-svn -|- Page Generated In 1.274920 secs.
-|- RSS FEED
Theme By: Nikkbu