[Login] or [Signup]
Login
Username:
Password:
[Signup]
[Recover Account]


Poll


You must be logged in to view polls



Torrent Details For "Welcome To Sajjanpur (2008) Hindi 720p WEB-DL x264 AC3 5.1 ESub-Sun George"

Welcome To Sajjanpur (2008) Hindi 720p WEB-DL x264 AC3 5.1 ESub-Sun George

Download this torrent | Magnet Download
Health:
Seeds: 0
Leechers: 0
Completed:
Last Checked: 05-12-2018 11:43:12
External Torrent
Update Stats
Download Magnet


Poster


iMDB
Title: Welcome to Sajjanpur
Year: 2008
Votes: 2809
Rating: 6.9/10
Language: Hindi
Director: Shyam Benegal
Writing By: Ashok Mishra,Shyam Benegal,
Produced By: Vikas Bahl,Siddharth Roy Kapur,Deven Khote,Himanshu Mehra,Zarina Mehta,Ram Mirchandani,Alpana Mishra,Chettan Motiwalla,Rucha Pathak,Ronnie Screwvala,
Music: Shantanu Moitra
Cast:
Shreyas Talpade as Mahadev
Amrita Rao as Kamala
Ravi Kishan as Ramkumar
Ila Arun as Ramsakhi Pannawali
Rajeshwari Sachdev as Shobharani
Divya Dutta as Vindhya
Yashpal Sharma as Ramsingh
Ravi Jhankal as Munnibai Mukhanni
Lalit Mohan Tiwari as Subedar Singh
Shri Vallabh Vyas as Ramavtar


Watch-Free-HD     Download

Details
Name:Welcome To Sajjanpur (2008) Hindi 720p WEB-DL x264 AC3 5.1 ESub-Sun George
Description:
Welcome To Sajjanpur (2008) Hindi 720p WEB-DL x264 AC3 5.1 ESub-Sun George






 



===================================================================

General
Format                                   : Matroska
Format version                           : Version 4 / Version 2
File size                                : 1.52 GiB
Duration                                 : 2 h 10 min
Overall bit rate                         : 1 671 kb/s
Movie name : Welcome To Sajjanpur (2008) Hindi 720p WEB-DL x264 AC3 5.1 ESub-Sun George

===================================================================

Video
ID                                       : 1
Format                                   : AVC
Format/Info                              : Advanced Video Codec
Format profile                           : [email protected]
Format settings                          : CABAC / 5 Ref Frames
Format settings, CABAC                   : Yes
Format settings, RefFrames               : 5 frames
Codec ID                                 : V_MPEG4/ISO/AVC
Duration                                 : 2 h 10 min
Bit rate                                 : 1 300 kb/s
Width                                    : 1 280 pixels
Height                                   : 720 pixels
Display aspect ratio                     : 16:9
Frame rate mode                          : Constant
Frame rate                               : 25.000 FPS
Color space                              : YUV
Chroma subsampling                       : 4:2:0
Bit depth                                : 8 bits
Scan type                                : Progressive
Bits/(Pixel*Frame)                       : 0.056
Stream size                              : 1.17 GiB (77%)
Title                                    : Sun George

===================================================================

Audio
ID                                       : 2
Format                                   : AC-3
Format/Info                              : Audio Coding 3
Codec ID                                 : A_AC3
Duration                                 : 2 h 10 min
Bit rate mode                            : Constant
Bit rate                                 : 384 kb/s
Channel(s)                               : 6 channels
Channel positions                        : Front: L C R, Side: L R, LFE
Sampling rate                            : 48.0 kHz
Frame rate                               : 31.250 FPS (1536 SPF)
Bit depth                                : 16 bits
Compression mode                         : Lossy
Stream size                              : 359 MiB (23%)
Title                                    : Sun George
Language                                 : Hindi
Service kind                             : Complete Main
Default                                  : Yes
Forced                                   : No

Text
ID                                       : 3
Format                                   : UTF-8
Codec ID                                 : S_TEXT/UTF8
Codec ID/Info                            : UTF-8 Plain Text
Duration                                 : 2 h 6 min
Bit rate                                 : 83 b/s
Count of elements                        : 2009
Stream size                              : 77.2 KiB (0%)
Title                                    : Sun George
Language                                 : English
Default                                  : Yes
Forced                                   : Yes




 

 

 

 

 

 

 

 

 

 
Category:Movies > Bollywood
Lang:Hindi
Total Size:1.55 GB
Info Hash:590558b2c207d60fb33b49537343b8997c2a9336
Added By:sungeorge
Date Added:05-12-2018 11:43:12
Views:965
Hits:48

Download Torrent

Ratings:Not Yet Rated (Log in to rate it)

  


Tracker:
udp://tracker.pirateparty.gr:6969/announce

This Torrent also has backup trackers
URLSeedersLeechersCompleted
http://tracker.fastdownload.xyz:443/announce000
http://retracker.telecom.by:80/announce000
http://seeders-paradise.org:443/announce000
http://share.camoe.cn:8080/announce000


File List: 



NFO:

Comments

No comments still posted

Powered by 10 Hamsters v2-svn -|- Page Generated In 3.630911 secs.
-|- RSS FEED
Theme By: Nikkbu